Trang 1/6 123 ... CuốiCuối
Hiện kết quả từ 1 tới 10 của 57

Chủ đề: Shaun the sheep: Chú cừu thông minh [trọn bộ 40 tập - chất lượng DVD]

  1. #1

    Một người đã có nhiều cống hiến cho AFCVN

    Avatar của beautifulplay
    Tham gia ngày
    01-03-2008
    Đến từ
    cái Vạc lủng audio
    Bài
    8.106
    Ar$
    783
    Cảm ơn
    6.045
    Được cảm ơn 1.425/2.771 bài

    Thumbs down Shaun the sheep: Chú cừu thông minh [trọn bộ 40 tập - chất lượng DVD]

    Shaun The Sheep



    Tên phim: Shaun The Sheep
    Thể loại: Hoạt hình, Hài, Gia đình...
    Nội dung: Shaun là một chú cừu mà không bao giờ theo bầy đàn của mình. Thực tế, Shaun "lãnh đạo" chúng vào trong tất cả các trò vui chơi quậy phá, chuyển sự yên bình trong thung lũng thành rắc rối trong đồng cỏ. Shaun và bạn luôn chạy trốn đi tiếng còi của chú chó chăn cừu tội nghiệp Bizter. Và mỗi ngày đều là một cuộc phiêu lưu của Shaun.


    Nước sản xuất: Anh
    Hãng sản xuất: Aardman Animations

    Hình ảnh: Về quá trình làm phim (Theo như thông tin mình biết thì các nhân vật đều được làm nên từ đất sét đấy!)




    Hai tấm này nhìn dễ thương quá nhỉ!

    Theo như thông tin mình đọc được từ tiếng Anh thì việc trước tiên là các họa sĩ phải phát thảo các hoạt đông rồi mới tiến hành các công đoạn tiếp theo.










    Các công đoạn đúng là công phu thật nhỉ!

    nguồn thông tin: dienanh.net
    Lần sửa cuối bởi beautifulplay; 20-08-2008 lúc 10:38 AM

  2. Có 13 cảm ơn beautifulplay cho bài viết này:

    ...kyoroo... (17-10-2010), babygoal06 (20-08-2008), chicong16 (16-10-2010), cowboy9x (07-08-2010), hungxugunner (19-08-2010), my_small_love (06-02-2011), nhamxitrum (12-12-2010), Okita Souji (07-02-2011), quaroicuocvui (11-06-2009), RealFan (21-08-2008), silver_gun (21-08-2008), viettoanhp (01-09-2008)

  3. #2

    Một người đã có nhiều cống hiến cho AFCVN

    Avatar của beautifulplay
    Tham gia ngày
    01-03-2008
    Đến từ
    cái Vạc lủng audio
    Bài
    8.106
    Ar$
    783
    Cảm ơn
    6.045
    Được cảm ơn 1.425/2.771 bài

    Thumbs down Danh sách các tập phim

    * List Movie:

    1. Off the baa (link down phim TẠI ĐÂY)
    2. Bathtime (link down phim TẠI ĐÂY)
    3. Shape up with Shaun (link down phim TẠI ĐÂY)
    4. Timmy in a Tizzy (link down phim TẠI ĐÂY)
    5. Scrumping (link down phim TẠI ĐÂY)
    6. Still Life (link down phim TẠI ĐÂY)
    7. Mower Mouth (link down phim TẠI ĐÂY)
    8. Take Away (link down phim TẠI ĐÂY)
    9. The Bull (link down phim TẠI ĐÂY)
    10. Saturday Night Shaun (link down phim TẠI ĐÂY)
    11. The Kite (link down phim TẠI ĐÂY)
    12. Little Sheep of Horrors (link down phim TẠI ĐÂY)
    13. Buzz off Bees (link down phim TẠI ĐÂY)
    14. Fleeced (link down phim TẠI ĐÂY)
    15. Shaun Shoots the Sheep (link down phim TẠI ĐÂY)
    16. Big Top Timmy (link down phim TẠI ĐÂY)
    17. Fetching (link down phim TẠI ĐÂY)
    18. Mountains Out of Molehills (link down phim TẠI ĐÂY)
    19. Who's the Mummy (link down phim TẠI ĐÂY)
    20. Things That go Bump (link down phim TẠI ĐÂY)
    21. Hiccup (link down phim TẠI ĐÂY)
    22. Marks on Concrete (link down phim TẠI ĐÂY)
    23. The Treasure Hunters (link down phim TẠI ĐÂY)
    24. Sheep on the Loose (link down phim TẠI ĐÂY)
    25. Washing Day (link down phim TẠI ĐÂY)
    26. Tooth Fairy (link down phim TẠI ĐÂY)
    27. Camping Chaos (link down phim TẠI ĐÂY)
    28. Save The Tree (link down phim TẠI ĐÂY)
    29. Shaun the Farmer (link down phim TẠI ĐÂY)
    30. Sheepwalking (link down phim TẠI ĐÂY)
    31. The Farmer's Niece (link down phim TẠI ĐÂY)
    32. If You Can't Stand the Heat (link down phim TẠI ĐÂY)
    33. Tidy Up (link down phim TẠI ĐÂY)
    34. The Visitor (link down phim TẠI ĐÂY)
    35. Helping Hound (link down phim TẠI ĐÂY)
    36. Snore-Worn Shaun (link down phim TẠI ĐÂY)
    37. Abracadabra (link down phim TẠI ĐÂY)
    38. Shaun Encounters (link down phim TẠI ĐÂY)
    39. Troublesome Tractor (link down phim TẠI ĐÂY)
    40. Stick with Me (link down phim TẠI ĐÂY)

    Lần sửa cuối bởi beautifulplay; 18-09-2008 lúc 09:17 AM

  4. Có 9 cảm ơn beautifulplay cho bài viết này:

    arsenal_numberone (30-08-2008), babygoal06 (20-08-2008), chicong16 (16-10-2010), hungxugunner (19-08-2010), kotaro22 (16-10-2010), my_small_love (06-02-2011), quaroicuocvui (11-06-2009), van_bergkamp (20-02-2010)

  5. #3

    Một người đã có nhiều cống hiến cho AFCVN

    Avatar của beautifulplay
    Tham gia ngày
    01-03-2008
    Đến từ
    cái Vạc lủng audio
    Bài
    8.106
    Ar$
    783
    Cảm ơn
    6.045
    Được cảm ơn 1.425/2.771 bài

    Thumbs down 1. Off the baa

    1.Off the baa



    link download
    [mediafire host - chất lượng DVD]

    click here to download


    Thông số kỹ thuật
    General
    Complete name : Shaun.The.Sheep.E01.Off.the.baa! (AFCVN CINEMA).avi
    Format : AVI
    Format/Info : Audio Video Interleave
    File size : 90.7 MiB
    Duration : 7mn 1s

    Overall bit rate : 1803 Kbps
    Writing application : MEncoder 1.0rc1-3.4.2
    Writing library : MPlayer
    Video
    Format : MPEG-4 Visual
    Format profile : Simple@L1
    Format settings, BVOP : No
    Format settings, QPel : No
    Format settings, GMC : No warppoints
    Format settings, Matrix : Default
    Codec ID : XVID
    Codec ID/Hint : XviD
    Duration : 7mn 1s
    Bit rate : 1694 Kbps
    Width : 750 pixels
    Height : 422 pixels

    Display aspect ratio : 16/9
    Frame rate : 25.000 fps
    Resolution : 8 bits
    Colorimetry : 4:2:0
    Scan type : Progressive
    Bits/(Pixel*Frame) : 0.214
    Stream size : 85.2 MiB (94%)
    Writing library : Lavc51.21.0
    Audio
    Format : MPEG Audio
    Format version : Version 1
    Format profile : Layer 3
    Codec ID : 55
    Codec ID/Hint : MP3
    Duration : 7mn 1s
    Bit rate mode : Constant
    Bit rate : 96.0 Kbps
    Channel(s) : 2 channels
    Sampling rate : 44.1 KHz
    Resolution : 16 bits
    Stream size : 4.83 MiB (5%)
    Alignment : Aligned on interleaves
    Interleave, duration : 26 ms (0.65 video frame)
    Interleave, preload duration : 522 ms
    Lần sửa cuối bởi beautifulplay; 20-08-2008 lúc 10:37 AM

  6. Có 5 cảm ơn beautifulplay cho bài viết này:

    arsenal_numberone (30-08-2008), babygoal06 (20-08-2008), quaroicuocvui (11-06-2009), silver_gun (21-08-2008)

  7. #4

    Một người đã có nhiều cống hiến cho AFCVN

    Avatar của beautifulplay
    Tham gia ngày
    01-03-2008
    Đến từ
    cái Vạc lủng audio
    Bài
    8.106
    Ar$
    783
    Cảm ơn
    6.045
    Được cảm ơn 1.425/2.771 bài

    Thumbs down 2. Bathtime

    2.Bathtime



    link download

    [mediafire host - chất lượng DVD]

    click here to download

    thông số kỹ thuật
    General
    Complete name : Shaun.The.Sheep.E02.Bathtime (AFCVN CINEMA).avi
    Format : AVI
    Format/Info : Audio Video Interleave
    File size : 90.7 MiB
    Duration : 7mn 1s

    Overall bit rate : 1803 Kbps
    Writing application : MEncoder 1.0rc1-3.4.2
    Writing library : MPlayer
    Video
    Format : MPEG-4 Visual
    Format profile : Simple@L1
    Format settings, BVOP : No
    Format settings, QPel : No
    Format settings, GMC : No warppoints
    Format settings, Matrix : Default
    Codec ID : XVID
    Codec ID/Hint : XviD
    Duration : 7mn 1s
    Bit rate : 1695 Kbps
    Width : 750 pixels
    Height : 422 pixels

    Display aspect ratio : 16/9
    Frame rate : 25.000 fps
    Resolution : 8 bits
    Colorimetry : 4:2:0
    Scan type : Progressive
    Bits/(Pixel*Frame) : 0.214
    Stream size : 85.2 MiB (94%)
    Writing library : Lavc51.21.0
    Audio
    Format : MPEG Audio
    Format version : Version 1
    Format profile : Layer 3
    Codec ID : 55
    Codec ID/Hint : MP3
    Duration : 7mn 1s
    Bit rate mode : Constant
    Bit rate : 96.0 Kbps
    Channel(s) : 2 channels
    Sampling rate : 44.1 KHz
    Resolution : 16 bits
    Stream size : 4.83 MiB (5%)
    Alignment : Aligned on interleaves
    Interleave, duration : 26 ms (0.65 video frame)
    Interleave, preload duration : 522 ms

    Lần sửa cuối bởi beautifulplay; 20-08-2008 lúc 11:04 AM

  8. Có 5 cảm ơn beautifulplay cho bài viết này:

    arsenal_numberone (30-08-2008), quaroicuocvui (11-06-2009), RealFan (21-08-2008), silver_gun (21-08-2008)

  9. #5
    Avatar của IluvGunners
    Tham gia ngày
    03-09-2005
    Tuổi
    24
    Bài
    3.688
    Ar$
    21.714
    Cảm ơn
    896
    Được cảm ơn 3.193/914 bài

    Mặc định

    Phim này thỉnh thoảng cũng xem trên Disney, cũng khá nhộn. Bác mod kiếm cho em trọn bộ According to Jim có phụ đề đi, em hậu tạ 150 thanks

  10. #6

    Tham gia ngày
    25-04-2008
    Bài
    868
    Ar$
    19.062
    Cảm ơn
    525
    Được cảm ơn 2.391/319 bài

    Mặc định

    Cám ơn beautifulplay nhiều nhiều. Phim yêu thích của mình :ars_1:.

  11. #7

    Một người đã có nhiều cống hiến cho AFCVN

    Avatar của beautifulplay
    Tham gia ngày
    01-03-2008
    Đến từ
    cái Vạc lủng audio
    Bài
    8.106
    Ar$
    783
    Cảm ơn
    6.045
    Được cảm ơn 1.425/2.771 bài

    Thumbs down 3.Shape up with Shaun

    3.Shape up with Shaun




    link download
    [mediafire host - chất lượng DVD]

    click here to download


    thông số kỹ thuật
    General
    Shaun.The.Sheep.E03.Shape.up.with.Shaun (AFCVN CINEMA).avi
    Format : AVI
    Format/Info : Audio Video Interleave
    File size : 90.6 MiB
    Duration : 6mn 59s

    Overall bit rate : 1810 Kbps
    Writing application : MEncoder 1.0rc1-3.4.2
    Writing library : MPlayer
    Video
    Format : MPEG-4 Visual
    Format profile : Simple@L1
    Format settings, BVOP : No
    Format settings, QPel : No
    Format settings, GMC : No warppoints
    Format settings, Matrix : Default
    Codec ID : XVID
    Codec ID/Hint : XviD
    Duration : 6mn 59s
    Bit rate : 1701 Kbps
    Width : 750 pixels
    Height : 422 pixels

    Display aspect ratio : 16/9
    Frame rate : 25.000 fps
    Resolution : 8 bits
    Colorimetry : 4:2:0
    Scan type : Progressive
    Bits/(Pixel*Frame) : 0.215
    Stream size : 85.2 MiB (94%)
    Writing library : Lavc51.21.0
    Audio
    Format : MPEG Audio
    Format version : Version 1
    Format profile : Layer 3
    Codec ID : 55
    Codec ID/Hint : MP3
    Duration : 6mn 59s
    Bit rate mode : Constant
    Bit rate : 96.0 Kbps
    Channel(s) : 2 channels
    Sampling rate : 44.1 KHz
    Resolution : 16 bits
    Stream size : 4.81 MiB (5%)
    Alignment : Aligned on interleaves
    Interleave, duration : 26 ms (0.65 video frame)
    Interleave, preload duration : 522 ms
    Lần sửa cuối bởi beautifulplay; 21-08-2008 lúc 01:28 AM

  12. Có 5 cảm ơn beautifulplay cho bài viết này:

    arsenal_numberone (30-08-2008), chiaki_282 (21-08-2010), silver_gun (21-08-2008), viettoanhp (01-09-2008)

  13. #8

    Một người đã có nhiều cống hiến cho AFCVN

    Avatar của beautifulplay
    Tham gia ngày
    01-03-2008
    Đến từ
    cái Vạc lủng audio
    Bài
    8.106
    Ar$
    783
    Cảm ơn
    6.045
    Được cảm ơn 1.425/2.771 bài

    Thumbs down 4. Timmy in a Tizzy

    4.Timmy in a Tizzy



    link download
    [mediafire host - chất lượng DVD]

    click here to download


    thông số kỹ thuật
    General
    Shaun.The.Sheep.E04.Timmy.in.a.tizzy (AFCVN CINEMA).avi
    Format : AVI
    Format/Info : Audio Video Interleave
    File size : 90.6 MiB
    Duration : 6mn 59s

    Overall bit rate : 1810 Kbps
    Writing application : MEncoder 1.0rc1-3.4.2
    Writing library : MPlayer
    Video
    Format : MPEG-4 Visual
    Format profile : Simple@L1
    Format settings, BVOP : No
    Format settings, QPel : No
    Format settings, GMC : No warppoints
    Format settings, Matrix : Default
    Codec ID : XVID
    Codec ID/Hint : XviD
    Duration : 6mn 59s
    Bit rate : 1702 Kbps
    Width : 750 pixels
    Height : 422 pixels

    Display aspect ratio : 16/9
    Frame rate : 25.000 fps
    Resolution : 8 bits
    Colorimetry : 4:2:0
    Scan type : Progressive
    Bits/(Pixel*Frame) : 0.215
    Stream size : 85.2 MiB (94%)
    Writing library : Lavc51.21.0
    Audio
    Format : MPEG Audio
    Format version : Version 1
    Format profile : Layer 3
    Codec ID : 55
    Codec ID/Hint : MP3
    Duration : 6mn 59s
    Bit rate mode : Constant
    Bit rate : 96.0 Kbps
    Channel(s) : 2 channels
    Sampling rate : 44.1 KHz
    Resolution : 16 bits
    Stream size : 4.81 MiB (5%)
    Alignment : Aligned on interleaves
    Interleave, duration : 26 ms (0.65 video frame)
    Interleave, preload duration : 522 ms
    we spam in every way



  14. Có 6 cảm ơn beautifulplay cho bài viết này:

    arsenal_numberone (30-08-2008), quaroicuocvui (11-06-2009), RealFan (21-08-2008), secondrice (23-06-2011), viettoanhp (01-09-2008)

  15. #9
    King Kong Avatar của RealFan
    Tham gia ngày
    09-08-2006
    Bài
    463
    Ar$
    9.300
    Cảm ơn
    179
    Được cảm ơn 229/79 bài

    Mặc định

    Khoái phim này
    Thích loại hoạt hình đất sét này, trông rất ngộ nghĩnh và sinh động. Phim Wallace & Gromit - The Curse of the Were-Rabbit cũng toàn nhân vật nặn bằng đất sét, công phu đến từng chi tiết.

  16. #10

    Một người đã có nhiều cống hiến cho AFCVN

    Avatar của beautifulplay
    Tham gia ngày
    01-03-2008
    Đến từ
    cái Vạc lủng audio
    Bài
    8.106
    Ar$
    783
    Cảm ơn
    6.045
    Được cảm ơn 1.425/2.771 bài

    Thumbs down 5. Scrumping

    5.Scrumping



    link download
    [mediafire host - chất lượng DVD]

    click here to download


    General
    Shaun.The.Sheep.E05.Scrumping (AFCVN CINEMA).avi
    Format : AVI
    Format/Info : Audio Video Interleave
    File size : 90.7 MiB
    Duration : 6mn 59s

    Overall bit rate : 1811 Kbps
    Writing application : MEncoder 1.0rc1-3.4.2
    Writing library : MPlayer
    Video
    Format : MPEG-4 Visual
    Format profile : Simple@L1
    Format settings, BVOP : No
    Format settings, QPel : No
    Format settings, GMC : No warppoints
    Format settings, Matrix : Default
    Codec ID : XVID
    Codec ID/Hint : XviD
    Duration : 6mn 59s
    Bit rate : 1703 Kbps
    Width : 750 pixels
    Height : 422 pixels

    Display aspect ratio : 16/9
    Frame rate : 25.000 fps
    Resolution : 8 bits
    Colorimetry : 4:2:0
    Scan type : Progressive
    Bits/(Pixel*Frame) : 0.215
    Stream size : 85.2 MiB (94%)
    Writing library : Lavc51.21.0
    Audio
    Format : MPEG Audio
    Format version : Version 1
    Format profile : Layer 3
    Codec ID : 55
    Codec ID/Hint : MP3
    Duration : 6mn 59s
    Bit rate mode : Constant
    Bit rate : 96.0 Kbps
    Channel(s) : 2 channels
    Sampling rate : 44.1 KHz
    Resolution : 16 bits
    Stream size : 4.81 MiB (5%)
    Alignment : Aligned on interleaves
    Interleave, duration : 26 ms (0.65 video frame)
    Interleave, preload duration : 522 ms

    we spam in every way



  17. Có 5 cảm ơn beautifulplay cho bài viết này:

    arsenal_numberone (30-08-2008), quaroicuocvui (11-06-2009), secondrice (23-06-2011), silver_gun (21-08-2008)

Trang 1/6 123 ... CuốiCuối

Thông tin chủ đề

Users Browsing this Thread

Hiện có 1 người đang theo dõi chủ đề này. (0 thành viên và 1 khách)

Chủ đề tương tự

  1. [Cầu lông] Nguyễn Tiến Minh tham dự giải cầu lông Sudirman Cup 2011
    By alex_arsenal in forum Các môn thể thao khác
    Trả lời: 22
    Bài cuối: 12-02-2014, 02:16 PM
  2. Nỗi buồn của Bóng Đá Thành Phố Hồ Chí Minh
    By quocdang06 in forum BÓNG ĐÁ VIỆT NAM
    Trả lời: 9
    Bài cuối: 03-09-2009, 01:01 PM
  3. Còn gì để biện minh....
    By Arsenal_mylove in forum ARSENAL HIỆN TẠI
    Trả lời: 37
    Bài cuối: 17-11-2008, 11:27 AM
  4. CHU LÊ MINH - Hãy nghe chị ấy hát
    By MinhTuan in forum ÂM NHẠC
    Trả lời: 11
    Bài cuối: 16-04-2008, 11:44 AM
  5. Những phát minh sáng tạo
    By DesertFox in forum VUI VẺ GIẢI TRÍ
    Trả lời: 4
    Bài cuối: 31-03-2008, 09:58 PM

Tags chủ đề

Quyền viết bài

  • Bạn không thể gửi chủ đề mới
  • Bạn không thể gửi trả lời
  • Bạn không thể gửi file đính kèm
  • Bạn không thể sửa bài viết của mình
  •